browser icon
You are using an insecure version of your web browser. Please update your browser!
Using an outdated browser makes your computer unsafe. For a safer, faster, more enjoyable user experience, please update your browser today or try a newer browser.

Megamind.2012X.m4v

Posted by surtongkephty1982 on March 10, 2014

Video > Handheld

Click here to download

Megamind.2012X.m4v

SIZE: 501.15MiB

Click here to download

Description

http://www.imdb.com/title/tt1001526/

Encoded for iPad, iPod touch(new)and iPhone4

Source 1080p Bluray

ID : 1
Format : AVC
Format/Info : Advanced Video Codec
Format profile : Main@L3.0
Format settings, CABAC : Yes
Format settings, ReFrames : 4 frames
Codec ID : avc1
Codec ID/Info : Advanced Video Coding
Duration : 1h 35mn
Bit rate mode : Variable
Bit rate : 600 Kbps
Width : 960 pixels
Height : 416 pixels
Display aspect ratio : 2.35:1
Frame rate mode : Variable
Frame rate : 23.976 fps
Minimum frame rate : 23.419 fps
Maximum frame rate : 24.390 fps
Color space : YUV
Chroma subsampling : 4:2:0
Bit depth : 8 bits
Scan type : Progressive
Bits/(Pixel*Frame) : 0.063
Stream size : 410 MiB (82%)
Writing library : x264 core 114

ID : 2
Format : AAC
Format/Info : Advanced Audio Codec
Format version : Version 4
Format profile : LC
Format settings, SBR : No
Codec ID : 40
Duration : 1h 35mn
Bit rate mode : Variable
Bit rate : 128 Kbps
Maximum bit rate : 268 Kbps
Channel(s) : 2 channels
Channel positions : Front: L R
Sampling rate : 48.0 KHz
Stream size : 87.3 MiB (17%)

http://img402.imageshack.us/i/megamind2012xm4vthumbs2.png/

Comments

Tags

No results found for Megamind.2012X.m4v . Search tips: Ensure words are spelled correctly. Try rephrasing keywords or using synonyms. Try less specific keywords. Make your queries as concise as possible. Other resources that may help you: Get additional search tips by visiting Web Search Help . If you cannot find a page that you know exists, send the address to us .
link link link link link link link

cde::cde

Leave a Reply

Your email address will not be published. Required fields are marked *

*

You may use these HTML tags and attributes: <a href="" title=""> <abbr title=""> <acronym title=""> <b> <blockquote cite=""> <cite> <code> <del datetime=""> <em> <i> <q cite=""> <strike> <strong>